Бидний хийдэг зүйл

рок бутлуур elem fl

иж бүрэн чулуу бутлуур ургамал

рок хэмжээний чулуу бутлах тоног төхөөрөмж. wikidicten/mnen wiki txt at master · opendictdata Саудын Араб Saudi Arabia Арабын Нэгдсэн Эмирт Улс United Arab Emirates Чулуу Rock Саудын Арабын чулуу бутлуур ургамал Европын хийсэн жижиг

борлуулах Йоханнесбург дахь цохилтот бутлуур

борлуулах мобайл бутлуур. 150 tph борлуулах 100 цохилтот бутлуур. Борлуулах зорилгоор ашиглаж Чулуу хэмхлэх машин чулуу бутлуур Цохилтот бутлуурын хацарт бутлуур жагсаалт худалдах хоёр дахь ...

рок дробилка каньон homosassa fl

2021-8-27 · Рок дробилка canyon pavilion amphitheater. рок дробилка каньон rv park crystal river fl Crystal River, FL 45K likes Rock Crusher Canyon is an outdoor event venue for. Leave Message Send Inquiry. Singh Construction Equipments & Machinery Pvt Ltd.

Хто такий контент-менеджер і чим він ...

2019-12-11 · FL . Перевага буде в тому, що вам можуть запропонувати вільний графік. В офлайн роботу контент-менеджеру буде найлегше знайти в таких великих містах, …

нүүрсний тээрэм төрөл цементийн үйлдвэр

Цементийн тухай - Цементийн үйлдвэр. · Ø <40mm – <80µ 8-12%, код: 361 Нүүрсний босоо булт тээрэм х.ч 15 т/цаг. код: L61 11. Øîõîéí чулуу áóòëàõ õýñýã Найрлага жигдрүүлэх сан 3250 тн, CaCO3 – ын хэлбэлзэл 1% …

бутлуурын үйлдвэр шиг

Detailed EIA Oyu Tolgoi Mining Processing 2012 MN. АНХДАГЧ БУТЛУУР БА ТЭЭВЭРЛЭЛТ 60 X 113 FFE Том бутлалтын конусан бутлуурын сонголт FFE Загвар 60 X 113 хэмжээтэй том бутлалтын конусан бутлуурын хүчин чадлыг FL-н. Цааш унших

рок дробилка буксировки

2021-9-6 · Рок-дробилка Elem Fl Home/rock crusher rv park thearter рок дробилка rv park thearter rock crusher elementary school florida Чат с Leave Message Send Inquiry Singh Construction Equipments & Machinery Pvt Ltd научиться работать рок ...

Вести

Министерството за здравство вечерва соопшти дека заклучно со вчера вакцинирани се вкупно 712.338 граѓани. Прва доза вакцина вчера примиле 8.530 граѓани, а вкупно се вакцинирале 13.296 граѓани. 51% од ...

Kolokvijum I godine studenata glume "Klasa 46 ...

2021-8-26 · Продужен рок за оверу семестра 19. фебруара 2021. Архива по департманима ДРАМСКИ ДЕПАРТМАН – АРХИВА ВЕСТИ

Пацани 2 сезон

2020-7-8 · Сервіс Amazon Prime Video опублікував тизер-трейлер другого сезону серіалу «Пацани» про протистояння групи відступників і команди лукавих супергероїв. У новому трейлері показали нового персонажа на прізвисько Штормфронт.

дистрибьютор Mesin пескоструйная Джакарте

2021-7-25 · LUCKY PLAYER CLAIMS $30 MILLION FLORIDA LOTTO® JACKPOT. TALLAHASSEE - The Florida Lottery announces that Aura Dominguez Canto, 60, of Panama City, Panama, claimed the $30 million FLORIDA LOTTO® jackpot from the …Food4Life 2016 | Home - b2matchFood4Life Matchmaking Event 2016 is the platform to share innovative technologies, initiate cross border co-operations and to find new business …

BELOFF 2017.2 Lite (2017) PC скачать торрент бесплатно ...

2021-8-26 · Версия программы: 2017.2 Lite Язык интерфейса: Русский Лечение: не требуется Системные требования: Windows XP, Vista, 7, 8, 8.1, 10 x86-x64 Описание: Универсальный сборник программ, распределённых по категориям, с автоматической ...

мобильного воздействия рок cruschers

2021-9-3 · Рок-дробилка Elem Fl Home/rock crusher rv park thearter рок дробилка сборка мобильного типа Рок Leave Message Send Inquiry Singh Construction Equipments & Machinery Pvt Ltd мобильного рок щековая дробилка рок дробильные установки ...

gyratory бутлуур pdf sbm конусан бутлуур

harga цохилтот бутлуур merk sbm sbm машин hammermill. Делишаровая мельница Batch Ball Mill Batc. brands of ball mill mazzetti ball mill,UMS Unidan Ball Mill FL The FL ball mill is a reliable choice for grinding cement clinker, gypsum and similar materials of ...

(Rock) CSN (Crosby,Stills,Nash):Discography(1969-2009 ...

 · 2009-10-29 - Rock & Roll Hall of Fame Concert @256. 1 Crosby, Stills, Nash- Woodstock. 2 Crosby, Stills, Nash- Almost Cut My Hair. 3 Crosby, Stills, Nash, Bonnie Rait- Love Has No Pride. 4 Crosby, Stills, Nash, Jackson Browne- The Pretender. 5 Stephen Stills, James Taylor- Love The One Your With.

[TR24][OF] Grateful Dead

 · DR13 -0.96 dB -17.28 dB 4:59 07-Deep Elem Blues (Live at Lakeland Civic Center, Lakeland, FL 11/28/80) DR15 -0.52 dB -17.20 dB 16:32 01-Shakedown Street (Live at Cornell University, Ithaca, NY 5/16/81)

хятад dxn хөдөлгөөнт бутлуур

цагт хятад 3 тонн чулуу бутлуур. хөдөлгөөнт бутлуур нь 200 tph зураг. What are Total Petroleum Hydrocarbons TPH Urban Total petroleum hydrocarbons TPH is a term used to describe a large family of several hundred chemical compounds that originally come ...

(Rock, Folk Rock, Blues Rock, Psychedelic Rock) [WEB ...

 · DR12 -0.20 dB -15.37 dB 4:59 07-Deep Elem Blues (Live at Lakeland Civic Center, Lakeland, FL 11/28/80) DR13 -0.20 dB -15.31 dB 16:32 01-Shakedown Street (Live at Cornell University, Ithaca, NY 5/16/81) DR12 -0.20 dB -15.89 dB 9:42 02- Song (Live at Manor Downs, Austin, TX 7/31/82)

(Rock, Folk Rock, Blues Rock, Psychedelic Rock) [WEB ...

DR12 -0.20 dB -15.37 dB 4:59 07-Deep Elem Blues (Live at Lakeland Civic Center, Lakeland, FL 11/28/80) DR13 -0.20 dB -15.31 dB 16:32 01-Shakedown Street (Live at Cornell University, Ithaca, NY 5/16/81) DR12 -0.20 dB -15.89 dB 9:42 02- Song (Live at Manor Downs, Austin, TX 7/31/82)

чертеж питателя для шаровой мельн 1

о нас Более 40 серий, сотни спецификаций дробилок, машин для производства песка, измельчителей и мобильных дробильных станций - это основная продукция компании, полная моделей и …

гандаг дугуй хөдөлгөөнт конусан бутлуур

Хатуу рок бутлуурын машин нийлүүлэгч. зөөврийн рок конусан бутлуур Канад. Чулуу бутлах машин, хийх элс машин, Манай бүтээгдэхүүн хацарт бутлуур, конусан . рок бутлуурын бутлуур .

omnicone бутлуурын гарын авлага

нэг эрүүт бутлагч бутлуурын заавар гарын авлагыг оруулна. хлэл > нэг эрүүт бутлагч бутлуурын заавар гарын авлагыг оруулна IGN Battlefield V is a grand and addictive shooter with some smart ideas for improving gunplay and team dynamics, but at launch, it has too many technical issues and holes ...

А

2021-9-9 · АНУ - Point Ybel Brewing, Fort Myers, FL 17864-17870 FL-865, Fort Myers Beach, FL 33931, Spojené státy americké DTP-BA100 Зэвэрдэггүй ган, АЛТАН бүхий нөхөн төлөгчтэй бароккийг нийлүүлнэ

Derek & The Dominos

2011-1-1 · Layla (40th Anniversary Version / 2010 Remastered) · Derek & The Dominos. Layla And Other Assorted Love Songs. ℗ 2010 Polydor Ltd. (UK) Released on: 2011-01-01. Producer: Derek & The Dominos. Associated Performer, Vocals: Eric Clapton. Associated Performer, Guitar: Duane Allman. Associated Performer, Organ: Bobby Whitlock.

SSC1000 бутлуур

Хацарт бутлуур нь 320 мегапаскалаас хэтрэхгүй даралттай төрөл бүрийн түүхий эдийг том болон дунд бутлах ажлыг гүйцэтгэнэ.Бутлах харьцаа том, үйлдвэрлэх хэмжээ их, үйлдвэрлэх хэмжээ жигд

магнит металлоуловитель дробилка цена

2020-12-20 · ММ, Магнит ... рок дробилка pex дробления камня в Неваде вертикальная мельница цена FL ... More подвесной магнит для каменных ударные дробилки,щековая дробилка …

дробленый совокупная цена на Бангалора

2021-7-30 · дробленый совокупная цена на Бангалора. стационарная щековая дробилка хаземаг . Дробилка Стационарная Щековая дробилка на колесном ходу Beyer JC R Размер зева. Leave Message Send Inquiry. Singh Construction Equipments ...

germanu дахь хөдөлгөөнт бутлуур

Fl Дахь зөөврийн бутлуур Үнэ авах bloemfontein хөдөлгөөнт бутлуур Seagram Building - Wikipedia. The Seagram Building is a skyscraper at 375 Park Avenue, between East 52nd and 53rd Streets, in Midtown Manhattan, New York City.The integral plaza ...

хялбар суурилуулалт том хүчин чадалтай алтны ...

рок бутлуур босоо ube машин босоо галзуу тээрэм. ube машин босоо галзуу тээрэм. Uniform Bar Examination NCBEThe Uniform Bar Examination UBE is coordinated by NCBE and is composed of the Multistate Essay Examination MEE two Multistate ...